<?xml version="1.0" standalone="no"?>
<!DOCTYPE svg PUBLIC "-//W3C//DTD SVG 1.1//EN" "http://www.w3.org/Graphics/SVG/1.1/DTD/svg11.dtd" >
<svg>
<metadata>
Created by FontForge 20090914 at Sat Jan 29 14:51:16 2011
 By www-data
Ryoichi Tsunekawa Bagel&#38;Co All rights reserved
</metadata>
<defs>
<font id="Bebas" horiz-adv-x="729" >
  <font-face 
    font-family="Bebas"
    font-weight="400"
    font-stretch="normal"
    units-per-em="1408"
    panose-1="0 0 0 0 0 0 0 0 0 0"
    ascent="1126"
    descent="-282"
    x-height="15"
    bbox="63.9176 -1651 1343 210"
    underline-thickness="50"
    underline-position="-50"
    unicode-range="U+0020-U+007E"
  />
    <missing-glyph />
    <glyph glyph-name="space" unicode=" " horiz-adv-x="130" 
 />
    <glyph glyph-name="exclam" unicode="!" horiz-adv-x="319" 
d="M65 -553v-701h189v701l-14 242h-161zM65 0v-189h189v189h-189z" />
    <glyph glyph-name="quotedbl" unicode="&#x22;" horiz-adv-x="529" 
d="M94 -1166l-29 -286h175l-29 286h-117zM318 -1166l-29 -286h175l-29 286h-117z" />
    <glyph glyph-name="numbersign" unicode="#" horiz-adv-x="1154" 
d="M863 -725l-40 238h195l-29 190h-197l-49 297h-189l49 -297h-163l-49 297h-189l49 -297h-186l29 -190h188l40 -238h-186l29 -190h188l56 -340h189l-56 340h163l56 -340h189l-56 340h195l-29 190h-197zM673 -725h-162l-39 238h162z" />
    <glyph glyph-name="dollar" unicode="$" horiz-adv-x="756" 
d="M382 -1108c-67 -1 -102 65 -101 138c1 100 76 192 157 255c95 74 142 132 195 215c126 199 30 476 -175 499v88h-160v-92c-141 -33 -224 -175 -233 -344l181 -13c8 74 27 127 57 158c77 83 196 8 196 -109c0 -51 -21 -105 -70 -155c-92 -94 -232 -205 -295 -311
c-108 -181 -24 -459 164 -490v-81h160v81c132 28 214 139 224 279l-182 33c-12 -79 -31 -150 -118 -151z" />
    <glyph glyph-name="percent" unicode="%" horiz-adv-x="1000" 
d="M222 -1308c84 0 157 74 157 157v358c3 83 -74 156 -157 156c-84 0 -157 -73 -157 -156v-358c-2 -84 73 -157 157 -157zM219 -1210c-31 0 -58 26 -57 57v358c-1 31 26 57 57 57s58 -26 57 -57v-358c1 -31 -26 -57 -57 -57zM622 -507c-2 -84 73 -157 157 -157
s156 74 156 157v358c3 84 -73 155 -156 155c-84 0 -157 -72 -157 -155v-358zM776 -94c31 0 58 -26 57 -57v-358c1 -31 -26 -57 -57 -57s-58 26 -57 57v358c-1 31 26 57 57 57zM236 21h-111l640 -1326h110z" />
    <glyph glyph-name="ampersand" unicode="&#x26;" horiz-adv-x="872" 
d="M374 -1314c155 0 260 106 266 264c4 97 -67 197 -120 268l-103 137c42 87 89 169 142 245c31 -71 55 -147 72 -228l171 38c-30 133 -71 246 -122 338c49 45 91 67 127 67v175c-73 0 -149 -33 -227 -100c-75 79 -155 118 -240 118c-159 0 -275 -131 -275 -298
c0 -145 79 -266 150 -371c-43 -111 -114 -209 -114 -357c0 -170 103 -296 273 -296zM374 -1169c-63 0 -101 78 -99 150c0 37 19 102 58 194c42 -63 130 -138 133 -224c2 -70 -38 -120 -92 -120zM270 -418c-49 96 -46 252 70 252c38 0 78 -24 121 -72
c-51 -66 -103 -147 -155 -242z" />
    <glyph glyph-name="quotesingle" unicode="'" horiz-adv-x="305" 
d="M65 -1452h175l-29 286h-117z" />
    <glyph glyph-name="parenleft" unicode="(" horiz-adv-x="505" 
d="M318 92c-121 -190 -253 -537 -253 -779c0 -268 130 -561 253 -739l119 56c-91 200 -185 426 -191 683c-5 187 108 536 194 717z" />
    <glyph glyph-name="parenright" unicode=")" horiz-adv-x="504" 
d="M259 -686c5 -191 -105 -509 -191 -683l119 -56c122 175 252 501 252 739c0 240 -132 589 -252 778l-122 -62c91 -214 186 -448 194 -716z" />
    <glyph glyph-name="asterisk" unicode="*" horiz-adv-x="626" 
d="M561 -1016l-153 27l104 108l-130 96l-72 -137l-73 137l-132 -96l111 -110l-151 -25l52 -151l137 67l-22 -155h159l-22 157l143 -69z" />
    <glyph glyph-name="plus" unicode="+" horiz-adv-x="774" 
d="M457 -683h252v140h-252v252h-140v-252h-252v-140h252v-252h140v252z" />
    <glyph glyph-name="comma" unicode="," horiz-adv-x="320" 
d="M65 0v-188h190v188l-69 144h-80l45 -144h-86z" />
    <glyph glyph-name="hyphen" unicode="-" horiz-adv-x="690" 
d="M65 -721h560v190h-560v-190z" />
    <glyph glyph-name="hyphen" unicode="&#x2010;" horiz-adv-x="690" 
d="M65 -721h560v190h-560v-190z" />
    <glyph glyph-name="period" unicode="." horiz-adv-x="319" 
d="M65 -188h189v189h-189v-189z" />
    <glyph glyph-name="slash" unicode="/" horiz-adv-x="807" 
d="M588 -1333h154l-523 1371h-154z" />
    <glyph glyph-name="zero" unicode="0" 
d="M365 -1270c162 0 299 139 299 300v684c5 162 -139 299 -299 299c-162 0 -300 -138 -300 -299v-684c-5 -162 139 -300 300 -300zM359 -180c58 0 109 -51 109 -109v-685c2 -58 -51 -109 -109 -109s-108 51 -108 109v685c-2 58 50 109 108 109z" />
    <glyph glyph-name="one" unicode="1" horiz-adv-x="480" 
d="M65 -1097c93 -11 187 -80 218 -157h132v1254h-190v-965h-160v-132z" />
    <glyph glyph-name="two" unicode="2" horiz-adv-x="746" 
d="M377 -1078c-87 0 -134 97 -123 211h-186c-11 -232 101 -383 314 -388c161 -4 299 150 299 310c0 85 -19 168 -57 247c-57 118 -252 366 -329 511l371 1v185h-601v-173c109 -194 308 -411 399 -614c23 -54 35 -104 35 -151c0 -75 -50 -139 -122 -139z" />
    <glyph glyph-name="three" unicode="3" horiz-adv-x="743" 
d="M364 13c-171 -1 -314 -143 -299 -330l180 -14c0 83 32 151 114 151c87 0 130 -40 130 -121c0 -169 -38 -271 -202 -267v-162c149 1 209 -88 209 -244c0 -82 -36 -123 -108 -123c-85 -1 -116 74 -109 170h-185c-10 -204 98 -343 285 -343c183 0 285 139 285 345
c0 114 -60 215 -140 263c82 50 152 128 154 262v99c5 175 -142 315 -314 314z" />
    <glyph glyph-name="four" unicode="4" horiz-adv-x="774" 
d="M65 -461l334 -794h189v794h121v190h-121v270h-189v-270h-334v-190zM399 -461v-391l-156 391h156z" />
    <glyph glyph-name="five" unicode="5" horiz-adv-x="715" 
d="M368 -715c-71 0 -101 67 -94 145h-190v-685h553v190h-363v269c29 -39 72 -73 142 -73c166 1 234 119 234 299v270c4 175 -127 315 -300 314c-170 -1 -299 -143 -285 -330l181 -14c3 80 22 151 99 151s116 -40 116 -121v-307c-1 -53 -30 -108 -93 -108z" />
    <glyph glyph-name="six" unicode="6" horiz-adv-x="700" 
d="M350 -1270c168 -3 298 142 285 327h-197c6 -78 -23 -140 -94 -140c-60 -1 -94 50 -94 109v250c43 -39 91 -58 143 -58c166 0 244 120 242 298l-1 215c-4 152 -127 282 -284 282c-162 0 -285 -137 -285 -299v-684c5 -174 109 -297 285 -300zM345 -628
c-58 0 -94 52 -94 110v229c-1 61 34 109 93 109s95 -49 94 -109v-232c-1 -52 -31 -107 -93 -107z" />
    <glyph glyph-name="seven" unicode="7" horiz-adv-x="698" 
d="M633 -1255v190l-265 1064h-185l265 -1064h-383v-190h568z" />
    <glyph glyph-name="eight" unicode="8" horiz-adv-x="744" 
d="M525 -662c82 50 152 128 154 262v114c2 167 -140 299 -315 299c-162 0 -303 -139 -299 -299v-114c-3 -112 68 -217 154 -262c-76 -42 -140 -120 -139 -248v-68c0 -173 121 -292 299 -292c166 0 285 125 285 292c0 156 -40 263 -139 316zM372 -181c89 0 126 -84 118 -194
c-7 -105 -23 -165 -118 -168c-109 -3 -118 107 -118 228c0 73 48 134 118 134zM372 -761c89 2 127 -70 124 -166c-3 -103 -33 -170 -124 -170c-93 0 -128 68 -124 170c5 106 30 164 124 166z" />
    <glyph glyph-name="nine" unicode="9" horiz-adv-x="700" 
d="M65 -988c16 -158 112 -278 285 -282c160 -4 285 137 285 300v684c4 161 -125 299 -285 299c-170 0 -298 -141 -285 -326h196c-6 78 23 139 94 139c60 1 94 -49 94 -108v-251c-44 39 -92 59 -143 59c-166 -1 -241 -121 -241 -299v-215zM354 -628c59 0 95 -48 95 -111v-229
c0 -59 -34 -109 -94 -109s-94 50 -94 109v232c1 53 29 108 93 108z" />
    <glyph glyph-name="colon" unicode=":" horiz-adv-x="320" 
d="M65 -188h190v188h-190v-188zM65 -720h190v189h-190v-189z" />
    <glyph glyph-name="semicolon" unicode=";" horiz-adv-x="319" 
d="M65 -188h189v189l-68 144h-80l44 -144h-85v-189zM65 -720h189v189h-189v-189z" />
    <glyph glyph-name="less" unicode="&#x3c;" horiz-adv-x="757" 
d="M692 -954v159l-431 178l431 181v158l-627 -271v-137z" />
    <glyph glyph-name="equal" unicode="=" horiz-adv-x="774" 
d="M65 -711v-140h644v140h-644zM65 -437v-140h644v140h-644z" />
    <glyph glyph-name="greater" unicode="&#x3e;" horiz-adv-x="757" 
d="M65 -954l627 271v137l-627 268v-158l431 -179l-431 -180v-159z" />
    <glyph glyph-name="question" unicode="?" horiz-adv-x="727" 
d="M65 -982c18 -168 112 -285 305 -288c177 -3 292 136 292 311c0 129 -57 254 -175 369c-70 68 -69 151 -67 277h-190c-5 -147 17 -268 87 -338c91 -91 144 -162 149 -311c3 -84 -40 -146 -122 -137c-58 6 -91 77 -97 149zM230 -181h190v190h-190v-190z" />
    <glyph glyph-name="at" unicode="@" horiz-adv-x="1408" 
d="M730 -39c147 0 288 -52 407 -153h206c-122 169 -340 300 -612 303c-383 4 -666 -297 -666 -696c0 -408 256 -740 673 -740c127 0 231 24 310 73c187 115 281 291 281 528c0 261 -184 552 -432 552c-68 0 -113 -28 -134 -83c-58 52 -94 81 -186 83
c-184 3 -283 -165 -283 -361c0 -125 29 -240 88 -346c70 -127 163 -190 278 -190c73 0 133 31 180 93l10 -67h189l-109 689c0 11 5 17 15 17c84 -2 160 -102 194 -177c27 -59 41 -129 41 -210c0 -263 -175 -450 -439 -450c-316 0 -527 248 -527 581c0 320 201 554 516 554z
M492 -487c0 81 35 172 106 168c96 -5 126 -94 154 -201c23 -85 34 -166 34 -243c1 -78 -31 -150 -101 -150c-131 0 -193 263 -193 426z" />
    <glyph glyph-name="A" unicode="A" horiz-adv-x="813" 
d="M308 -288l-46 288h-197l213 -1253h260l210 1253h-198l-45 -288h-197zM407 -966l-70 494h140z" />
    <glyph glyph-name="B" unicode="B" horiz-adv-x="767" 
d="M702 -350c0 201 -107 350 -287 350h-350v-1254h283c201 6 330 124 330 347c0 118 -48 212 -133 251c99 40 157 155 157 306zM494 -364c-1 -122 -36 -194 -146 -197h-79v374h79c87 3 146 -75 146 -177zM477 -907c0 -92 -45 -154 -129 -155h-79v320h79
c84 2 129 -67 129 -165z" />
    <glyph glyph-name="C" unicode="C" 
d="M664 -283c5 162 -139 299 -299 299c-162 0 -300 -138 -300 -299v-684c-5 -162 139 -300 300 -300c162 0 303 139 299 300v143h-196v-147c2 -58 -51 -109 -109 -109s-108 51 -108 109v686c-2 58 50 108 108 108s109 -50 109 -108v-173h196v175z" />
    <glyph glyph-name="D" unicode="D" horiz-adv-x="724" 
d="M362 -1254c161 -5 297 139 297 299v655c5 160 -137 300 -297 300h-297v-1254h297zM475 -952c2 -58 -50 -109 -107 -109h-114v874h114c58 2 107 -52 107 -109v-656z" />
    <glyph glyph-name="E" unicode="E" horiz-adv-x="668" 
d="M65 0v-1254h538v189h-349v343h255v190h-255v343h349v189h-538z" />
    <glyph glyph-name="F" unicode="F" horiz-adv-x="668" 
d="M254 0h-189v-1254h538v189h-349v343h255v190h-255v532z" />
    <glyph glyph-name="G" unicode="G" 
d="M664 -283c5 162 -139 299 -299 299c-161 0 -300 -139 -300 -299v-684c-5 -162 139 -300 300 -300c162 0 303 139 299 300v143h-196v-147c2 -58 -51 -109 -109 -109s-108 51 -108 109v686c-2 58 50 108 108 108s109 -50 109 -108v-247h-105v-189h301v438z" />
    <glyph glyph-name="H" unicode="H" horiz-adv-x="736" 
d="M255 -531v531h-190v-1253h190v532h226v-532h190v1253h-190v-531h-226z" />
    <glyph glyph-name="I" unicode="I" horiz-adv-x="319" 
d="M254 0h-189v-1253h189v1253z" />
    <glyph glyph-name="J" unicode="J" horiz-adv-x="546" 
d="M92 -177c101 23 203 -8 204 -103v-971h185v967c5 202 -202 350 -416 283z" />
    <glyph glyph-name="K" unicode="K" horiz-adv-x="796" 
d="M255 -396v396h-190v-1254h190v447l230 -447h202l-259 513l303 741h-222l-198 -508z" />
    <glyph glyph-name="L" unicode="L" horiz-adv-x="645" 
d="M580 0h-515v-1253h189v1065h326v188z" />
    <glyph glyph-name="M" unicode="M" horiz-adv-x="1007" 
d="M254 0h-189v-1254h271l176 899l169 -899h261v1254h-189v-788l-164 788h-152l-183 -786v786z" />
    <glyph glyph-name="N" unicode="N" horiz-adv-x="782" 
d="M278 -1254l250 842v-842h189v1254h-203l-260 -803v803h-189v-1254h213z" />
    <glyph glyph-name="O" unicode="O" 
d="M65 -969c-5 -161 139 -300 299 -300c162 0 300 139 300 300v684c5 162 -139 300 -300 300c-162 0 -299 -139 -299 -300v-684zM359 -179c58 0 108 -50 108 -108v-686c2 -58 -50 -108 -108 -108s-109 50 -109 108v686c-2 58 51 108 109 108z" />
    <glyph glyph-name="P" unicode="P" horiz-adv-x="724" 
d="M659 -772c4 160 -136 305 -296 300h-109v472h-189v-1253h298c176 -4 296 123 296 299v182zM368 -659c58 2 108 -51 108 -109v-183c1 -64 -44 -110 -108 -109h-114v401h114z" />
    <glyph glyph-name="Q" unicode="Q" horiz-adv-x="761" 
d="M365 -1269c162 0 299 140 299 300v684c0 54 -13 104 -40 150c17 19 41 29 72 29v176c-95 0 -159 -30 -194 -89c-203 109 -437 -56 -437 -266v-684c-5 -162 139 -300 300 -300zM359 -179c58 0 109 -50 109 -108v-686c2 -58 -51 -108 -109 -108s-108 50 -108 108v686
c-2 58 50 108 108 108z" />
    <glyph glyph-name="R" unicode="R" horiz-adv-x="764" 
d="M363 -1253c196 -1 297 104 297 299v182c0 89 -34 164 -101 225l140 547h-204l-115 -473c-40 3 -84 0 -126 1v472h-189v-1253h298zM368 -659c58 2 108 -51 108 -109v-183c0 -73 -36 -109 -108 -109h-114v401h114z" />
    <glyph glyph-name="S" unicode="S" horiz-adv-x="755" 
d="M381 -1099c-67 -1 -102 65 -101 138c1 100 79 192 158 255c113 90 175 152 224 274c87 216 -28 452 -275 447c-212 -4 -307 -152 -322 -355l180 -13c8 73 27 125 58 158c77 83 196 8 196 -109c0 -52 -22 -105 -71 -155c-94 -95 -243 -214 -301 -322
c-28 -54 -42 -113 -42 -176c-2 -179 106 -312 291 -312c186 1 289 114 305 288l-181 33c-11 -81 -34 -149 -119 -151z" />
    <glyph glyph-name="T" unicode="T" horiz-adv-x="720" 
d="M266 -1064h-201v-189h590v189h-200v1064h-189v-1064z" />
    <glyph glyph-name="U" unicode="U" 
d="M664 -284c5 163 -138 298 -300 298s-299 -137 -299 -298v-969h185v967c-2 58 51 108 109 108s108 -50 108 -108v-967h197v969z" />
    <glyph glyph-name="V" unicode="V" horiz-adv-x="842" 
d="M289 0l-224 -1253h198l157 975l159 -975h198l-228 1253h-260z" />
    <glyph glyph-name="W" unicode="W" horiz-adv-x="1105" 
d="M842 -1253h198l-196 1253h-181l-107 -684l-100 684h-181l-210 -1253h198l99 671l91 -671h198l99 671z" />
    <glyph glyph-name="X" unicode="X" horiz-adv-x="827" 
d="M762 0h-203l-145 -398l-146 398h-203l246 -630l-246 -623h209l140 387l139 -387h209l-246 623z" />
    <glyph glyph-name="Y" unicode="Y" horiz-adv-x="826" 
d="M318 -525l-253 -729h208l140 450l139 -450h209l-254 729v525h-189v-525z" />
    <glyph glyph-name="Z" unicode="Z" horiz-adv-x="682" 
d="M617 -1253v189l-348 876h348v188h-552v-188l349 -876h-349v-189h552z" />
    <glyph glyph-name="bracketleft" unicode="[" horiz-adv-x="448" 
d="M65 -1332h318v190h-128v955h128v188h-318v-1333z" />
    <glyph glyph-name="backslash" unicode="\" horiz-adv-x="807" 
d="M65 -1332h153l524 1370h-154z" />
    <glyph glyph-name="bracketright" unicode="]" horiz-adv-x="447" 
d="M65 -1333h317v1334h-317v-189h128v-955h-128v-190z" />
    <glyph glyph-name="asciicircum" unicode="^" horiz-adv-x="534" 
d="M313 -1452l156 351h-130l-71 -171l-71 171h-132l156 -351h92z" />
    <glyph glyph-name="underscore" unicode="_" horiz-adv-x="1097" 
d="M65 210v-139h967v139h-967z" />
    <glyph glyph-name="grave" unicode="`" horiz-adv-x="407" 
d="M65 -1416h175l102 287h-117z" />
    <glyph glyph-name="a" unicode="a" horiz-adv-x="813" 
d="M308 -288l-46 288h-197l213 -1253h260l210 1253h-198l-45 -288h-197zM407 -966l-70 494h140z" />
    <glyph glyph-name="b" unicode="b" horiz-adv-x="767" 
d="M702 -350c0 201 -107 350 -287 350h-350v-1254h283c201 6 330 124 330 347c0 118 -48 212 -133 251c99 40 157 155 157 306zM494 -364c-1 -122 -36 -194 -146 -197h-79v374h79c87 3 146 -75 146 -177zM477 -907c0 -92 -45 -154 -129 -155h-79v320h79
c84 2 129 -67 129 -165z" />
    <glyph glyph-name="c" unicode="c" 
d="M664 -283c5 162 -139 299 -299 299c-162 0 -300 -138 -300 -299v-684c-5 -162 139 -300 300 -300c162 0 303 139 299 300v143h-196v-147c2 -58 -51 -109 -109 -109s-108 51 -108 109v686c-2 58 50 108 108 108s109 -50 109 -108v-173h196v175z" />
    <glyph glyph-name="d" unicode="d" horiz-adv-x="724" 
d="M362 -1254c161 -5 297 139 297 299v655c5 160 -137 300 -297 300h-297v-1254h297zM475 -952c2 -58 -50 -109 -107 -109h-114v874h114c58 2 107 -52 107 -109v-656z" />
    <glyph glyph-name="e" unicode="e" horiz-adv-x="668" 
d="M65 0v-1254h538v189h-349v343h255v190h-255v343h349v189h-538z" />
    <glyph glyph-name="f" unicode="f" horiz-adv-x="668" 
d="M254 0h-189v-1254h538v189h-349v343h255v190h-255v532z" />
    <glyph glyph-name="g" unicode="g" 
d="M664 -283c5 162 -139 299 -299 299c-161 0 -300 -139 -300 -299v-684c-5 -162 139 -300 300 -300c162 0 303 139 299 300v143h-196v-147c2 -58 -51 -109 -109 -109s-108 51 -108 109v686c-2 58 50 108 108 108s109 -50 109 -108v-247h-105v-189h301v438z" />
    <glyph glyph-name="h" unicode="h" horiz-adv-x="736" 
d="M255 -531v531h-190v-1253h190v532h226v-532h190v1253h-190v-531h-226z" />
    <glyph glyph-name="i" unicode="i" horiz-adv-x="319" 
d="M254 0h-189v-1253h189v1253z" />
    <glyph glyph-name="j" unicode="j" horiz-adv-x="546" 
d="M92 -177c101 23 203 -8 204 -103v-971h185v967c5 202 -202 350 -416 283z" />
    <glyph glyph-name="k" unicode="k" horiz-adv-x="796" 
d="M255 -396v396h-190v-1254h190v447l230 -447h202l-259 513l303 741h-222l-198 -508z" />
    <glyph glyph-name="l" unicode="l" horiz-adv-x="645" 
d="M580 0h-515v-1253h189v1065h326v188z" />
    <glyph glyph-name="m" unicode="m" horiz-adv-x="1007" 
d="M254 0h-189v-1254h271l176 899l169 -899h261v1254h-189v-788l-164 788h-152l-183 -786v786z" />
    <glyph glyph-name="n" unicode="n" horiz-adv-x="782" 
d="M278 -1254l250 842v-842h189v1254h-203l-260 -803v803h-189v-1254h213z" />
    <glyph glyph-name="o" unicode="o" 
d="M65 -969c-5 -161 139 -300 299 -300c162 0 300 139 300 300v684c5 162 -139 300 -300 300c-162 0 -299 -139 -299 -300v-684zM359 -179c58 0 108 -50 108 -108v-686c2 -58 -50 -108 -108 -108s-109 50 -109 108v686c-2 58 51 108 109 108z" />
    <glyph glyph-name="p" unicode="p" horiz-adv-x="724" 
d="M659 -772c4 160 -136 305 -296 300h-109v472h-189v-1253h298c176 -4 296 123 296 299v182zM368 -659c58 2 108 -51 108 -109v-183c1 -64 -44 -110 -108 -109h-114v401h114z" />
    <glyph glyph-name="q" unicode="q" horiz-adv-x="761" 
d="M365 -1269c162 0 299 140 299 300v684c0 54 -13 104 -40 150c17 19 41 29 72 29v176c-95 0 -159 -30 -194 -89c-203 109 -437 -56 -437 -266v-684c-5 -162 139 -300 300 -300zM359 -179c58 0 109 -50 109 -108v-686c2 -58 -51 -108 -109 -108s-108 50 -108 108v686
c-2 58 50 108 108 108z" />
    <glyph glyph-name="r" unicode="r" horiz-adv-x="764" 
d="M363 -1253c196 -1 297 104 297 299v182c0 89 -34 164 -101 225l140 547h-204l-115 -473c-40 3 -84 0 -126 1v472h-189v-1253h298zM368 -659c58 2 108 -51 108 -109v-183c0 -73 -36 -109 -108 -109h-114v401h114z" />
    <glyph glyph-name="s" unicode="s" horiz-adv-x="755" 
d="M381 -1099c-67 -1 -102 65 -101 138c1 100 79 192 158 255c113 90 175 152 224 274c87 216 -28 452 -275 447c-212 -4 -307 -152 -322 -355l180 -13c8 73 27 125 58 158c77 83 196 8 196 -109c0 -52 -22 -105 -71 -155c-94 -95 -243 -214 -301 -322
c-28 -54 -42 -113 -42 -176c-2 -179 106 -312 291 -312c186 1 289 114 305 288l-181 33c-11 -81 -34 -149 -119 -151z" />
    <glyph glyph-name="t" unicode="t" horiz-adv-x="720" 
d="M266 -1064h-201v-189h590v189h-200v1064h-189v-1064z" />
    <glyph glyph-name="u" unicode="u" 
d="M664 -284c5 163 -138 298 -300 298s-299 -137 -299 -298v-969h185v967c-2 58 51 108 109 108s108 -50 108 -108v-967h197v969z" />
    <glyph glyph-name="v" unicode="v" horiz-adv-x="842" 
d="M289 0l-224 -1253h198l157 975l159 -975h198l-228 1253h-260z" />
    <glyph glyph-name="w" unicode="w" horiz-adv-x="1105" 
d="M842 -1253h198l-196 1253h-181l-107 -684l-100 684h-181l-210 -1253h198l99 671l91 -671h198l99 671z" />
    <glyph glyph-name="x" unicode="x" horiz-adv-x="827" 
d="M762 0h-203l-145 -398l-146 398h-203l246 -630l-246 -623h209l140 387l139 -387h209l-246 623z" />
    <glyph glyph-name="y" unicode="y" horiz-adv-x="826" 
d="M318 -525l-253 -729h208l140 450l139 -450h209l-254 729v525h-189v-525z" />
    <glyph glyph-name="z" unicode="z" horiz-adv-x="682" 
d="M617 -1253v189l-348 876h348v188h-552v-188l349 -876h-349v-189h552z" />
    <glyph glyph-name="braceleft" unicode="{" horiz-adv-x="536" 
d="M471 11c-211 -2 -303 -49 -307 -247v-193c0 -69 -3 -112 -9 -129c-14 -38 -44 -59 -90 -62v-97c46 -4 78 -24 90 -63c17 -56 7 -233 9 -322c4 -197 97 -245 307 -247v131c-112 3 -149 15 -149 122v268c0 68 -44 141 -94 159c49 18 94 90 94 159v269c2 108 37 118 149 121
v131z" />
    <glyph glyph-name="bar" unicode="|" horiz-adv-x="310" 
d="M65 -1651h180v1754h-180v-1754z" />
    <glyph glyph-name="braceright" unicode="}" horiz-adv-x="536" 
d="M65 -1340c211 2 307 50 308 247l1 274c6 65 24 107 97 111v97c-101 12 -98 69 -98 191v193c-5 197 -95 244 -308 246v-130c113 -3 149 -12 149 -121v-269c0 -63 44 -143 94 -159c-49 -18 -95 -93 -94 -159v-269c-2 -108 -36 -118 -149 -121v-131z" />
    <glyph glyph-name="asciitilde" unicode="~" horiz-adv-x="742" 
d="M249 -1469c90 0 158 91 244 91c24 0 50 -20 79 -59l105 78c-102 128 -193 139 -341 57c-91 -50 -103 -56 -166 18l-105 -78c55 -74 116 -107 184 -107z" />
    </font>
</defs>
</svg>
