<?xml version="1.0" standalone="no"?>
<!DOCTYPE svg PUBLIC "-//W3C//DTD SVG 1.1//EN" "http://www.w3.org/Graphics/SVG/1.1/DTD/svg11.dtd" >
<svg>
<metadata>
Created by FontForge 20090914 at Sat Jan 29 14:51:20 2011
 By www-data
Another friendly font from Allen R. Walden. UNPROTECTED - Please distribute freely.
</metadata>
<defs>
<font id="Lansbury" horiz-adv-x="438" >
  <font-face 
    font-family="Lansbury"
    font-weight="500"
    font-stretch="normal"
    units-per-em="1000"
    panose-1="0 0 0 0 0 0 0 0 0 0"
    ascent="800"
    descent="-200"
    cap-height="1"
    bbox="-163 -697.253 708.649 317"
    underline-thickness="50"
    underline-position="-75"
    unicode-range="U+0020-U+007E"
  />
    <missing-glyph />
    <glyph glyph-name="space" unicode=" " horiz-adv-x="278" 
 />
    <glyph glyph-name="exclam" unicode="!" horiz-adv-x="153" 
d="M47 -556c-2 -12 41 -61 55 -57c8 0 12 5 12 16l-16 500c-6 -22 -26 -25 -37 -39zM37 -32c10 -40 84 -25 81 12c-3 36 -44 51 -69 24c-12 -12 -17 -21 -12 -36z" />
    <glyph glyph-name="quotedbl" unicode="&#x22;" horiz-adv-x="263" 
d="M192 -621c60 2 53 67 21 107c-19 25 -32 48 -39 27c4 -22 28 -28 31 -53c0 -5 -2 -8 -6 -8c-27 1 -52 -23 -43 -51c4 -15 16 -22 36 -22zM21 -588c2 -46 81 -41 82 2c9 35 -39 99 -59 106c-14 -25 27 -33 28 -60c0 -5 -2 -8 -6 -8c-22 1 -45 -20 -45 -40z" />
    <glyph glyph-name="numbersign" unicode="#" horiz-adv-x="504" 
d="M445 -381l-6 39h-107l-11 74h108l-6 39h-107l-25 171h-38l23 -171h-78l-25 171h-38l23 -171h-108l7 -39h107l11 -74h-110l7 -39h108l21 -158h40l-22 158h78l23 -158h39l-22 158h108zM293 -342h-80l-10 74h78z" />
    <glyph glyph-name="dollar" unicode="$" horiz-adv-x="420" 
d="M214 -521c-50 0 -110 43 -110 85c0 33 26 62 77 89l143 71c52 33 78 75 78 124c0 89 -80 155 -176 151c-2 28 5 66 -4 87c-12 -11 -15 -23 -34 -29c-21 -6 -7 -38 -11 -59c-129 12 -209 -145 -123 -237c26 -27 67 -47 107 -40c57 -3 123 55 120 110c-2 41 -26 65 -61 84
c-11 1 -49 -36 -30 -45c45 1 44 -67 18 -90c-51 -45 -150 5 -147 72c3 72 74 102 149 106c72 3 139 -48 139 -108c0 -135 -305 -138 -298 -288c3 -70 57 -114 123 -126c-2 -31 21 -65 44 -79c16 8 5 52 8 74c40 -2 117 27 119 58c1 13 -9 64 -19 65
c-14 -37 -61 -75 -112 -75z" />
    <glyph glyph-name="percent" unicode="%" horiz-adv-x="586" 
d="M169 -564c80 0 124 59 124 138c0 77 -50 134 -128 134c-79 0 -121 -59 -121 -138c0 -75 50 -134 125 -134zM491 -576l-358 575h-47l359 -575h46zM414 -286c79 0 123 56 123 135c0 78 -45 137 -124 137c-82 0 -124 -58 -124 -139c0 -76 49 -133 125 -133zM166 -330
c56 0 91 -41 90 -97c0 -57 -29 -99 -87 -99c-55 0 -89 41 -88 96c0 58 27 100 85 100zM412 -51c59 0 89 -42 89 -101c0 -56 -30 -96 -87 -96c-55 0 -89 41 -88 96c0 58 28 101 86 101z" />
    <glyph glyph-name="ampersand" unicode="&#x26;" horiz-adv-x="514" 
d="M363 -151c8 -30 11 -41 11 -77h38c0 45 -8 82 -23 113l90 112h-46l-62 -77c-35 49 -79 84 -155 85c-84 2 -161 -59 -160 -140c1 -76 71 -130 135 -171c-46 -60 -66 -65 -71 -131c-4 -63 56 -106 119 -106c62 0 121 43 117 106c-5 70 -49 97 -109 141zM224 -326
c59 -43 88 -45 93 -112c3 -43 -36 -69 -78 -69c-74 0 -107 74 -59 129zM93 -141c-6 93 121 141 197 89c22 -14 40 -34 56 -59l-131 -164c-63 36 -117 67 -122 134z" />
    <glyph glyph-name="quotesingle" unicode="'" horiz-adv-x="133" 
d="M26 -588c1 -47 81 -40 82 2c9 35 -39 99 -59 106c-14 -25 27 -33 28 -60c0 -5 -2 -8 -6 -8c-22 1 -45 -20 -45 -40z" />
    <glyph glyph-name="parenleft" unicode="(" horiz-adv-x="153" 
d="M131 -558c-63 251 -75 476 0 748c-5 25 -28 37 -36 61c-59 -190 -92 -399 -57 -627c10 -65 24 -138 45 -221c7 -26 21 -12 34 7c9 14 14 25 14 32z" />
    <glyph glyph-name="parenright" unicode=")" horiz-adv-x="153" 
d="M22 -558c-4 -14 37 -81 49 -39c78 278 86 569 -14 848c-7 -25 -28 -38 -35 -61c73 -265 65 -501 0 -748z" />
    <glyph glyph-name="asterisk" unicode="*" horiz-adv-x="243" 
d="M219 -547l-66 24l44 55l-30 22l-46 -57l-46 58l-29 -23l43 -55l-66 -24l12 -35l67 25v-70h38v70l67 -25z" />
    <glyph glyph-name="plus" unicode="+" horiz-adv-x="477" 
d="M420 -286h-162v147h-39v-147h-163v-39h163v-147h39v147h162v39z" />
    <glyph glyph-name="comma" unicode="," horiz-adv-x="133" 
d="M41 -50c66 -32 84 54 43 100c-20 22 -31 46 -39 26c4 -18 30 -27 32 -51c0 -4 -2 -6 -6 -6c-34 4 -66 -52 -30 -69z" />
    <glyph glyph-name="hyphen" unicode="-" horiz-adv-x="257" 
d="M227 -199h-188v-36h188v36z" />
    <glyph glyph-name="period" unicode="." horiz-adv-x="133" 
d="M27 -32c10 -40 87 -25 81 12c1 22 -21 43 -41 37c-21 0 -47 -24 -40 -49z" />
    <glyph glyph-name="slash" unicode="/" horiz-adv-x="300" 
d="M251 -676c2 -30 67 -27 67 2c0 15 -4 17 -13 31c-92 162 -213 465 -217 673c0 19 -3 32 -23 32c-21 0 -45 -17 -42 -39c25 -218 160 -486 228 -699z" />
    <glyph glyph-name="zero" unicode="0" 
d="M224 -577c252 1 254 567 0 568c-127 1 -199 -142 -199 -284c0 -140 72 -285 199 -284zM222 -59c82 0 145 -142 145 -236c0 -93 -65 -237 -145 -237c-86 0 -149 144 -149 237s63 236 149 236z" />
    <glyph glyph-name="one" unicode="1" 
d="M254 -84c-1 36 44 45 38 90l-135 2c-4 -48 36 -57 36 -101v-359c5 -11 -52 -31 -48 -41c-1 -10 88 -118 109 -93v502z" />
    <glyph glyph-name="two" unicode="2" 
d="M346 -79c19 9 40 15 39 38c-3 71 -107 50 -179 50h-159c6 -59 29 -66 58 -96l162 -167c30 -29 69 -98 69 -154c0 -90 -116 -160 -189 -88c-28 28 -40 56 -48 96c-7 0 -38 -43 -34 -55c13 -46 102 -121 160 -121c167 0 197 222 113 329c-49 63 -116 110 -162 177
c9 25 58 20 92 20c39 0 63 -5 78 -29z" />
    <glyph glyph-name="three" unicode="3" 
d="M251 -295c81 31 126 92 126 188c0 116 -74 203 -179 204c-59 1 -114 -33 -135 -72c-1 -9 45 -56 57 -45c-9 29 46 61 78 61c72 0 120 -77 120 -152c0 -66 -39 -138 -100 -137c-23 0 -47 9 -63 22v-63c61 -32 127 -91 127 -181c0 -37 -21 -63 -60 -63c-48 0 -80 48 -91 85
c-6 -2 -43 -42 -37 -57c9 -29 88 -81 128 -81c73 0 113 47 113 120c0 66 -40 151 -84 171z" />
    <glyph glyph-name="four" unicode="4" 
d="M150 -195c-1 8 14 14 22 14h96v-151c4 -20 32 -36 47 -49v200h53v53h-53l-1 262c-1 9 -3 13 -5 13c-27 -27 -40 -33 -51 -53l10 -30v-192h-193c-18 4 -11 -30 -8 -36c98 -136 128 -207 193 -400c0 -6 54 -35 69 -24c-69 201 -87 244 -179 393z" />
    <glyph glyph-name="five" unicode="5" 
d="M302 -123c0 -94 -109 -159 -189 -112c-4 1 -20 -14 -23 -22c21 -68 27 -129 50 -209c6 -23 15 -54 26 -93h163c15 -1 44 39 38 55h-154c-3 0 -12 32 -27 97s-22 100 -22 105c105 -23 195 81 195 179c0 129 -69 249 -189 249c-41 0 -121 -23 -123 -55c-3 -4 48 -62 53 -51
c-19 27 43 47 66 47c88 0 136 -95 136 -190z" />
    <glyph glyph-name="six" unicode="6" 
d="M223 -1c-92 0 -159 -92 -155 -188c8 -217 114 -340 253 -446c9 8 13 53 12 73c-55 7 -154 129 -153 163l41 -16c182 1 217 414 2 414zM119 -197c0 78 36 141 100 143c67 3 104 -57 104 -129c0 -74 -41 -177 -106 -177c-64 0 -98 91 -98 163z" />
    <glyph glyph-name="seven" unicode="7" 
d="M274 -562c29 3 72 -11 89 6c-58 156 -100 271 -124 477c-12 105 -25 177 -32 218c0 3 -2 5 -5 8c-5 0 -13 -13 -24 -38s-16 -41 -16 -47c17 -49 41 -264 53 -323c17 -86 46 -146 67 -217c0 -9 -6 -13 -18 -13h-153c-14 -4 -19 19 -21 4c-2 -19 13 -77 29 -77z" />
    <glyph glyph-name="eight" unicode="8" 
d="M311 -323c25 34 67 111 67 150c0 93 -71 176 -163 174c-120 -2 -190 -170 -112 -274l33 -50c-37 -29 -47 -82 -47 -145c0 -71 63 -130 134 -129c89 1 141 54 141 153c0 61 -26 90 -53 121zM223 -354c57 -4 95 -44 98 -104c2 -62 -50 -82 -106 -84c-55 -2 -82 53 -83 96
c-1 46 40 95 91 92zM227 -54c60 0 102 -47 102 -112s-40 -119 -104 -119c-67 0 -112 43 -112 112c0 72 47 119 114 119z" />
    <glyph glyph-name="nine" unicode="9" 
d="M222 -560c98 0 157 93 155 192c-5 218 -118 332 -251 442c-10 -7 -18 -57 -12 -75c48 -2 141 -119 151 -161c-112 57 -190 -98 -190 -212c0 -100 54 -186 147 -186zM122 -376c0 73 42 173 108 173c123 0 136 -304 -4 -304c-71 0 -104 61 -104 131z" />
    <glyph glyph-name="colon" unicode=":" horiz-adv-x="153" 
d="M37 -397c12 -33 83 -28 81 14c-2 33 -45 49 -68 23c-12 -13 -18 -21 -13 -37zM37 -32c10 -40 84 -25 81 12c-3 36 -44 51 -69 24c-12 -12 -17 -21 -12 -36z" />
    <glyph glyph-name="semicolon" unicode=";" horiz-adv-x="153" 
d="M37 -397c12 -33 83 -28 81 14c-2 33 -45 49 -68 23c-12 -13 -18 -21 -13 -37zM51 -50c68 -31 83 54 43 100c-19 22 -31 46 -39 26c4 -17 29 -25 31 -51c0 -4 -2 -6 -6 -6c-35 3 -65 -52 -29 -69z" />
    <glyph glyph-name="less" unicode="&#x3c;" horiz-adv-x="467" 
d="M415 -139l-364 -157v-33l364 -156v43l-302 129l302 131v43z" />
    <glyph glyph-name="equal" unicode="=" horiz-adv-x="457" 
d="M411 -339h-364v-38h364v38zM411 -234h-364v-39h364v39z" />
    <glyph glyph-name="greater" unicode="&#x3e;" horiz-adv-x="457" 
d="M418 -296l-364 157v-43l302 -131l-302 -129v-43l364 156v33z" />
    <glyph glyph-name="question" unicode="?" horiz-adv-x="287" 
d="M146 -574c133 0 156 152 91 230l-103 123c-20 22 -21 68 -13 103c4 17 -28 21 -43 13c-20 -11 -16 -39 -20 -63c21 -134 165 -164 165 -300c0 -40 -33 -55 -77 -55c-47 0 -79 45 -90 85c-4 2 -43 -46 -39 -53c9 -33 86 -83 129 -83zM58 -32c9 -39 82 -27 78 12
c-3 35 -43 51 -69 25c-12 -12 -16 -23 -9 -37z" />
    <glyph glyph-name="at" unicode="@" horiz-adv-x="520" 
d="M291 -499c109 -5 192 98 192 210c0 107 -49 168 -134 185c-37 0 -42 -23 -47 -57c-30 35 -43 56 -87 59c-37 2 -62 -40 -62 -80c0 -57 79 -174 132 -174c13 0 34 12 61 36c20 -13 54 2 40 22c-24 36 -50 103 -50 157c0 13 5 20 16 20c63 -16 90 -75 90 -156
c0 -103 -53 -197 -146 -199c-128 -2 -203 140 -200 279c2 124 42 207 150 221c33 4 90 -28 108 -28c13 0 19 5 19 16c-7 22 -67 34 -105 34c-127 0 -222 -121 -220 -254c3 -162 91 -284 243 -291zM225 -118c41 9 107 -137 107 -178c0 -15 -10 -25 -29 -25
c-55 0 -113 104 -111 163c0 27 11 40 33 40z" />
    <glyph glyph-name="A" unicode="A" horiz-adv-x="372" 
d="M335 -60c0 18 22 36 19 59l-86 2c-3 -26 18 -43 18 -61c0 -42 6 -94 -5 -128c-6 -15 -26 -10 -41 -7c-23 11 -141 44 -135 43c-21 0 -38 189 -51 226c-30 84 -50 147 -79 190c-14 -4 -49 -79 -43 -104c13 -8 29 -11 36 -21c58 -104 76 -352 94 -530
c8 -82 56 -177 127 -183c73 -6 124 105 128 187zM197 -519c-79 0 -110 204 -94 312c53 -21 112 -31 159 -61c16 -71 2 -251 -65 -251z" />
    <glyph glyph-name="B" unicode="B" horiz-adv-x="400" 
d="M44 -511c0 -21 -43 -54 -12 -59c10 -2 68 12 79 12c113 -3 223 47 224 147c0 50 -26 86 -67 106c65 33 112 90 112 165c0 150 -190 136 -354 141c-3 -26 18 -43 18 -61v-451zM132 -58c85 8 182 -11 183 -82c2 -93 -99 -146 -202 -132c-1 -23 -5 -62 4 -76
c41 53 162 7 159 -61c-3 -66 -94 -99 -167 -98c-11 0 -16 3 -16 10v422c-3 14 29 17 39 17z" />
    <glyph glyph-name="C" unicode="C" horiz-adv-x="342" 
d="M269 -432c8 -49 -31 -80 -65 -87c-87 10 -135 132 -135 244c0 71 30 146 91 225c33 43 90 101 169 173c61 55 91 90 91 104c0 16 -21 89 -31 90c-14 -47 -37 -90 -109 -162c-90 -91 -147 -152 -171 -185c-61 -82 -91 -164 -91 -245c0 -157 58 -296 190 -303
c58 -3 152 75 92 128c-14 13 -24 26 -31 18z" />
    <glyph glyph-name="D" unicode="D" horiz-adv-x="420" 
d="M97 -554c139 -9 303 173 300 310c-4 169 -101 244 -280 243l-85 2c-2 -26 16 -42 16 -61v-451c1 -15 -30 -37 -25 -55c6 -21 60 17 74 12zM168 -69c95 -1 167 -76 167 -179c0 -95 -120 -232 -203 -232c-22 0 -33 11 -33 32v345c2 23 39 35 69 34z" />
    <glyph glyph-name="E" unicode="E" horiz-adv-x="372" 
d="M259 -260c-37 -50 -117 6 -153 30c-25 31 -12 94 -12 143c0 22 7 33 22 33h171c32 0 45 -32 66 -45c0 23 -18 65 -31 96l-220 2l-75 -2c-1 -12 16 -36 16 -57v-451c3 -29 -13 -44 -16 -61l271 2l30 83l-4 3c-31 -57 -134 -35 -214 -35c-22 0 -16 9 -16 37v136
c1 38 5 50 28 41c21 -8 112 -51 137 -55c18 10 7 57 7 88c0 8 -3 12 -7 12z" />
    <glyph glyph-name="F" unicode="F" horiz-adv-x="343" 
d="M40 -511c2 -28 -11 -46 -15 -61l270 2l30 83l-4 3c-31 -57 -134 -35 -214 -35c-22 0 -16 9 -16 37v205c1 37 4 50 28 43c27 -8 113 -52 137 -55c10 -1 8 12 8 21l-1 65c-1 8 -3 12 -7 12c-39 -51 -115 4 -153 31c-8 9 -12 18 -12 28v324c-3 14 26 44 6 49
c-28 0 -50 -46 -72 -77c0 -20 15 -32 15 -57v-618z" />
    <glyph glyph-name="G" unicode="G" horiz-adv-x="410" 
d="M323 -226c0 -19 -21 -36 -18 -61h87c3 24 -21 53 -20 61v345c-5 -7 -41 -25 -109 -54c-135 -57 -230 -140 -232 -303c-2 -195 102 -325 249 -377l55 86c-159 -35 -245 133 -245 291c0 120 103 240 208 245c11 0 25 -5 25 -14v-219z" />
    <glyph glyph-name="H" unicode="H" horiz-adv-x="372" 
d="M332 -62c0 18 20 36 17 59l-84 2c-2 -26 16 -42 16 -61v-200c-1 -11 -17 -3 -24 -2l-145 59c-11 8 -21 16 -22 32v219c4 82 -44 207 -92 228c-10 -5 -31 -59 -22 -78c55 -17 63 -63 63 -150v-557c0 -8 -18 -40 -15 -61l84 2c3 24 -17 41 -18 59v249c0 3 2 6 4 8l178 -74
c6 -3 9 -5 9 -8v-206c15 -18 38 -58 51 -48v528z" />
    <glyph glyph-name="I" unicode="I" horiz-adv-x="182" 
d="M119 -60c0 18 22 36 19 59l-86 2c-3 -26 18 -43 18 -61v-451c-1 -18 -21 -35 -18 -61l86 2c3 22 -20 50 -19 59v451z" />
    <glyph glyph-name="J" unicode="J" horiz-adv-x="248" 
d="M109 -509c1 -10 -18 -42 -16 -61h85c3 25 -17 42 -18 61v493c0 67 -39 132 -119 193c-73 56 -116 81 -166 79c-20 -5 -33 -46 -33 -72c1 -41 23 -2 47 -8c75 6 220 -118 220 -192v-493z" />
    <glyph glyph-name="K" unicode="K" horiz-adv-x="391" 
d="M279 -523c13 -16 -30 -21 -22 -47h118c-2 31 -19 28 -33 47l-114 151c68 140 109 309 147 479c16 71 37 111 57 144c-9 6 -107 -53 -102 -61c-13 -164 -76 -405 -147 -505c-22 13 -75 91 -91 120v135c0 17 21 35 18 59l-84 2c-2 -22 15 -40 15 -61v-425
c2 -7 -16 -19 -15 -26c0 -2 60 -75 68 -55v243c0 11 3 35 15 26c4 -2 7 -5 9 -8z" />
    <glyph glyph-name="L" unicode="L" horiz-adv-x="277" 
d="M115 -570c3 23 -20 52 -20 59v451c3 4 95 42 113 54c21 3 160 145 215 145c13 0 23 -1 29 -4c14 35 -17 77 -53 74c-109 -42 -243 -220 -369 -208c-6 0 -9 -3 -9 -8c0 -11 13 -39 25 -53v-451c-1 -18 -21 -35 -18 -61z" />
    <glyph glyph-name="M" unicode="M" horiz-adv-x="609" 
d="M304 -540c13 -29 48 -55 94 -55c52 0 88 63 126 182c22 67 79 571 120 640c1 6 -2 7 -6 8c-12 3 -89 -41 -85 -53c-1 -142 -45 -453 -77 -566c-29 -102 -54 -154 -83 -154c-41 -1 -61 48 -61 90v384c0 18 22 36 19 59l-86 2c-3 -26 18 -43 18 -61v-384
c1 -40 -24 -90 -61 -90c-27 0 -54 51 -84 153c-35 118 -85 435 -87 571c4 11 -94 55 -104 45c54 -47 117 -597 138 -632c34 -129 77 -194 129 -194c44 0 72 26 90 55z" />
    <glyph glyph-name="N" unicode="N" horiz-adv-x="381" 
d="M28 260c-8 -10 17 -33 13 -47v-726c-1 -17 -12 -41 -17 -57l4 -2c20 18 65 26 84 41l110 283c4 10 8 19 16 26c4 -6 6 -14 6 -24v-198c-1 -67 41 -134 82 -161c8 -5 56 51 53 57c-45 -7 -94 66 -94 104v402c-1 19 1 38 -12 41c-17 -1 -26 -31 -33 -55
c-28 -99 -75 -233 -120 -314c-10 -18 -24 -34 -31 -19l1 608c4 9 -54 43 -62 41z" />
    <glyph glyph-name="O" unicode="O" horiz-adv-x="381" 
d="M194 -572c116 0 171 151 171 285c0 137 -53 284 -171 284s-178 -148 -178 -284c0 -137 60 -285 178 -285zM194 -62c88 0 124 -122 124 -227c0 -108 -35 -228 -124 -228c-95 0 -135 123 -135 228c0 111 43 227 135 227z" />
    <glyph glyph-name="P" unicode="P" horiz-adv-x="372" 
d="M81 -570c159 -12 270 40 267 185c0 49 -23 98 -68 145c5 7 -197 145 -197 196v240c2 6 -55 49 -62 39c1 -15 13 -35 13 -47v-717l-19 -27c7 -14 39 -12 66 -14zM134 -519c-20 0 -45 1 -51 10v324c0 5 3 8 8 8c25 0 65 -23 120 -70c60 -51 90 -96 90 -134
c0 -89 -75 -139 -167 -138z" />
    <glyph glyph-name="Q" unicode="Q" horiz-adv-x="420" 
d="M216 -574c197 -4 222 329 130 477c-41 65 -90 100 -158 92l-19 55c96 -21 187 68 142 166c-7 14 -19 28 -36 40l-38 -43c11 -14 17 -24 18 -45c2 -52 -94 -90 -133 -51c-11 -10 -23 -18 -26 -29c20 -23 42 -66 43 -106c-57 -21 -113 -171 -113 -263
c0 -140 65 -291 190 -293zM216 -75c90 -1 126 -115 126 -220c0 -109 -31 -216 -130 -212c-132 6 -159 233 -102 357c20 44 39 67 59 67c13 -28 11 -85 21 -98c7 -2 45 37 42 45z" />
    <glyph glyph-name="R" unicode="R" horiz-adv-x="382" 
d="M116 -325c6 -10 69 46 80 38c74 1 110 -30 112 -98c3 -89 -121 -148 -220 -130v455c0 17 21 35 18 59l-84 2c-2 -22 15 -40 15 -61v-451c0 -8 -18 -40 -15 -61l84 2c124 -2 247 66 247 181c0 42 -13 76 -39 102l-86 47c73 119 149 386 227 502c-19 -3 -87 -46 -123 -70
c-4 -50 -9 -71 -24 -110l-108 -275c-10 -34 -57 -56 -94 -35c10 -28 16 -63 10 -97z" />
    <glyph glyph-name="S" unicode="S" horiz-adv-x="362" 
d="M-2 273c-22 8 -54 -68 -54 -87c0 -23 33 -10 35 -10c48 0 109 -26 181 -79c81 -59 120 -121 120 -182c0 -106 -122 -129 -188 -178c-45 -33 -64 -94 -64 -162c0 -76 60 -147 136 -147c48 0 128 45 129 85c0 6 -39 69 -47 45c11 -32 -50 -75 -82 -75c-52 0 -81 46 -81 96
c0 56 21 100 67 123l125 62c46 33 68 86 67 161c0 67 -27 137 -98 184z" />
    <glyph glyph-name="T" unicode="T" horiz-adv-x="343" 
d="M19 -493c20 -16 33 -64 47 -77h220c9 3 26 66 39 77c-27 -20 -61 -25 -106 -26c-16 -1 -28 15 -28 30v588c-1 27 21 41 36 55c-3 3 -5 4 -6 4c-46 5 -82 33 -106 73c-13 -44 22 -66 29 -90v-630c1 -49 -75 -27 -102 -17c-7 3 -14 7 -23 13z" />
    <glyph glyph-name="U" unicode="U" horiz-adv-x="400" 
d="M363 -26c2 8 36 27 2 27c-57 0 -122 -4 -184 -4c-86 0 -161 -87 -161 -170c0 -68 96 -232 86 -246c-1 -37 -16 -61 -39 -84c11 -25 32 -70 53 -43c23 30 35 67 37 112c3 70 -95 240 -84 261c-1 51 52 117 108 117c42 0 97 3 133 -4v-447c-2 -22 -23 -39 -20 -61h87
c3 25 -17 42 -18 61v481z" />
    <glyph glyph-name="V" unicode="V" horiz-adv-x="504" 
d="M108 -570c5 24 -25 43 -18 59l57 393c2 29 42 64 71 64c32 0 57 -32 67 -98c30 -190 58 -380 188 -463c4 -1 72 29 59 37c-75 26 -135 88 -153 191l-46 258c-26 119 -104 171 -186 94c-28 -26 -44 -54 -49 -83l-59 -393c0 -8 -18 -40 -15 -61z" />
    <glyph glyph-name="W" unicode="W" horiz-adv-x="686" 
d="M322 -118c-1 39 32 65 71 64c32 0 56 -32 66 -98l30 -188c34 -131 68 -211 159 -275c4 -1 72 29 59 37c-75 26 -134 88 -153 191l-47 258c-20 87 -59 130 -118 130c-39 0 -68 -19 -87 -49c-28 52 -110 67 -161 21c-27 -24 -45 -53 -51 -91l-57 -393
c-3 -14 -20 -37 -17 -61l86 2c5 20 -23 39 -20 59l59 393c5 39 28 64 69 64c40 0 64 -22 63 -64v-393c-1 -18 -21 -35 -18 -61l87 2c3 23 -20 52 -20 59v393z" />
    <glyph glyph-name="X" unicode="X" horiz-adv-x="419" 
d="M322 -599c12 24 27 55 45 70c3 40 -94 189 -126 248l145 241c5 7 7 20 7 39l-85 2c-4 -24 27 -43 16 -61l-102 -170c-4 -5 -11 -2 -12 2l-140 273c-51 89 -110 165 -176 229c-22 14 -56 -40 -57 -57c6 -6 6 -6 14 -6c34 0 79 -43 138 -128c55 -80 143 -250 199 -368
l-147 -248c-3 -8 -4 -21 -4 -39l85 2c6 23 -29 42 -18 59l108 179c53 -85 108 -161 110 -267z" />
    <glyph glyph-name="Y" unicode="Y" horiz-adv-x="477" 
d="M218 -268c47 -118 113 -275 190 -333c5 -4 64 39 61 45h-13c-103 14 -174 248 -207 353l2 143c0 17 23 35 20 59l-86 2c-3 -25 17 -45 17 -61l-4 -139l-163 -334c-3 -7 -5 -20 -5 -39l86 2c6 24 -34 42 -20 59l102 212c6 13 11 22 20 31z" />
    <glyph glyph-name="Z" unicode="Z" horiz-adv-x="400" 
d="M284 -505c0 -17 -32 -9 -48 -14h-39c-83 -3 -84 7 -120 34c-7 -28 -6 -47 2 -75c73 -22 178 -10 267 -10c31 0 23 13 13 35l-230 454c-10 18 5 27 29 25c44 -4 153 6 181 -6c11 -9 22 -18 35 -27c0 20 5 65 -2 75c-23 10 -37 11 -69 11h-279c-10 -6 -4 -11 4 -26z" />
    <glyph glyph-name="bracketleft" unicode="[" horiz-adv-x="264" 
d="M62 179c-25 5 -22 -27 -18 -47c40 -182 50 -416 40 -634c-2 -35 -10 -74 -16 -111c1 -16 33 -49 54 -41c36 4 63 -2 103 -2c12 0 18 5 18 14c-1 37 -49 30 -85 30c-12 0 -18 5 -18 16c12 255 -18 481 -42 717c7 30 65 9 92 8c11 0 17 4 17 16c-3 60 -90 24 -145 34z" />
    <glyph glyph-name="backslash" unicode="\" horiz-adv-x="332" 
d="M12 -674c0 -27 67 -34 67 -2c26 90 64 172 95 258c59 163 120 306 133 441c2 23 -19 40 -42 39c-18 1 -23 -15 -23 -32c-5 -214 -131 -525 -226 -690c-3 -5 -4 -9 -4 -14z" />
    <glyph glyph-name="bracketright" unicode="]" horiz-adv-x="264" 
d="M54 -621c-1 -27 22 -43 52 -34l93 -2c30 -2 20 28 17 48c-34 197 -69 533 -24 739c-2 40 -47 55 -91 43c-27 0 -43 0 -65 6c-13 0 -19 -5 -19 -14c1 -38 48 -31 85 -31c13 0 19 -5 19 -14c-12 -255 18 -484 42 -719c-9 -31 -64 -8 -92 -7c-11 0 -17 -5 -17 -15z" />
    <glyph glyph-name="asciicircum" unicode="^" horiz-adv-x="500" 
d="M463 -368h-52l-162 -249l-161 249h-50l183 -284h58z" />
    <glyph glyph-name="underscore" unicode="_" horiz-adv-x="500" 
d="M510 129h-520v-37h520v37z" />
    <glyph glyph-name="grave" unicode="`" horiz-adv-x="391" 
d="M241 -446c-32 0 -119 -91 -118 -118c6 -18 59 -42 65 -7c19 48 27 69 58 97c10 9 9 28 -5 28z" />
    <glyph glyph-name="a" unicode="a" horiz-adv-x="290" 
d="M262 -65c-5 12 35 56 16 62h-132c-69 2 -125 -38 -125 -100c0 -47 33 -88 98 -123s98 -64 98 -89c0 -21 -24 -43 -41 -43c-47 0 -102 -12 -110 31c-1 -34 -32 -86 25 -86h114c35 -1 58 39 57 75v273zM68 -105c5 56 102 74 149 47v-153c-43 -12 -153 64 -149 106z" />
    <glyph glyph-name="b" unicode="b" horiz-adv-x="324" 
d="M21 -497c-2 -8 50 -66 60 -61c5 0 8 3 8 8v147c2 39 154 127 158 143c37 39 56 79 56 122c0 85 -62 135 -153 137l-114 2l-2 -471c2 -15 -11 -18 -13 -27zM85 -62c63 29 180 -7 175 -74c11 -41 -129 -167 -165 -167c-7 0 -10 3 -10 10v231z" />
    <glyph glyph-name="c" unicode="c" horiz-adv-x="304" 
d="M241 -158c8 -4 53 42 51 49c1 48 -90 108 -141 108c-91 0 -138 -109 -139 -206c-1 -102 57 -208 151 -206c64 1 112 50 112 126c0 58 -26 110 -79 110c-30 0 -70 -21 -72 -42c7 -13 13 -51 25 -56c21 14 19 45 51 39c44 -8 38 -91 6 -110c-44 -26 -92 -12 -118 34
c-35 62 -30 142 -1 209c39 88 155 34 150 -49c0 -2 3 -5 4 -6z" />
    <glyph glyph-name="d" unicode="d" horiz-adv-x="314" 
d="M170 -1c-92 1 -151 -49 -151 -137c0 -47 22 -92 67 -132l147 -131c-5 -36 13 -77 -12 -96l65 -65v563zM193 -52c17 0 39 -2 44 -10v-231c0 -7 -4 -10 -12 -10c-35 0 -174 128 -163 167c-1 57 69 85 131 84z" />
    <glyph glyph-name="e" unicode="e" horiz-adv-x="334" 
d="M83 -115c1 27 45 52 75 50c63 -5 100 -33 106 -99c0 -1 1 -3 4 -5c13 2 40 35 45 47c-6 43 -91 130 -149 119c-111 0 -151 -82 -153 -196c-2 -113 48 -213 153 -216c65 -2 148 82 145 143c-7 12 -179 125 -226 157zM166 -358c-80 -2 -125 96 -106 183c3 12 7 18 14 13
l172 -115c1 -23 -54 -87 -80 -81z" />
    <glyph glyph-name="f" unicode="f" horiz-adv-x="296" 
d="M303 -517c-5 -11 -23 -16 -39 -16c-49 -1 -117 48 -114 101c2 48 106 -10 120 41v64c-10 -25 -58 -15 -90 -15c-18 0 -30 1 -30 14v441c4 43 -38 156 -70 159c-20 -19 -63 -47 -38 -65c35 -24 57 -45 57 -100v-435c-2 -25 -46 -10 -70 -14c-7 -23 -4 -49 0 -71
c32 -4 80 17 70 -35c-11 -59 102 -160 151 -161c11 5 38 62 53 92z" />
    <glyph glyph-name="g" unicode="g" horiz-adv-x="343" 
d="M250 -488c46 32 -1 59 -12 99l46 41c85 105 30 341 -111 336c-5 11 -5 24 -8 49c68 -1 120 48 120 117c0 77 -75 135 -157 130v-59c58 5 100 -22 100 -75c0 -56 -77 -75 -142 -66c16 -28 33 -69 34 -108c-66 -18 -92 -103 -92 -195c0 -108 48 -190 141 -196
c13 0 21 2 29 6l10 -88c7 -18 25 -3 42 9zM185 -83c91 4 102 -133 69 -209c-11 -24 -23 -39 -38 -42l-24 57c-14 -3 -44 -5 -37 -12l18 -57c-85 -7 -110 140 -77 221c9 24 25 41 41 34l10 -57c7 -17 48 6 49 16z" />
    <glyph glyph-name="h" unicode="h" horiz-adv-x="324" 
d="M184 -415c134 -2 149 191 98 305c-40 89 -89 190 -86 313c0 3 -1 5 -4 8c-12 0 -42 -63 -41 -80c7 -128 104 -244 106 -375c1 -60 -16 -115 -65 -116c-63 -2 -112 56 -112 114v186c0 17 23 35 20 59l-86 2c-3 -25 17 -45 17 -61v-425c2 -7 -18 -19 -17 -26
c-1 -2 61 -75 68 -55v206c26 -37 60 -55 102 -55z" />
    <glyph glyph-name="i" unicode="i" horiz-adv-x="190" 
d="M95 -574c25 0 46 21 46 46s-21 46 -46 46s-46 -21 -46 -46s21 -46 46 -46zM121 -60c0 18 22 36 19 59l-86 2c-3 -26 18 -43 18 -61v-290c0 -19 -21 -38 -18 -63l86 2c3 26 -19 43 -19 61v290z" />
    <glyph glyph-name="j" unicode="j" horiz-adv-x="200" 
d="M106 -574c25 0 46 21 46 46s-21 46 -46 46s-46 -21 -46 -46s21 -46 46 -46zM82 -350c0 -9 -18 -41 -15 -63l84 2c3 26 -19 43 -19 61v412c0 51 -12 97 -48 128l-104 90l-55 -61c0 -6 27 -22 79 -48s78 -62 78 -109v-412z" />
    <glyph glyph-name="k" unicode="k" horiz-adv-x="334" 
d="M222 -364c17 -16 -28 -23 -20 -49h116c0 12 0 19 -1 20c-36 25 -99 106 -150 157c68 127 98 194 135 319c9 29 24 58 45 83c-9 15 -75 -19 -78 -27c-39 -116 -70 -249 -137 -332c-20 -1 -41 31 -50 45v88c0 17 21 35 18 59l-84 2c-2 -22 15 -40 15 -61v-425
c2 -7 -16 -19 -15 -26c0 -2 60 -75 68 -55v306c0 9 4 33 14 24c44 -39 81 -88 124 -128z" />
    <glyph glyph-name="l" unicode="l" horiz-adv-x="163" 
d="M110 -60c0 17 23 35 20 59l-87 2c-3 -26 18 -43 18 -61v-425c2 -8 -20 -18 -18 -26c0 -2 58 -76 67 -55v506z" />
    <glyph glyph-name="m" unicode="m" horiz-adv-x="591" 
d="M287 -383c18 -25 46 -30 88 -30c57 0 108 66 141 200l41 165c9 15 15 22 14 45c-31 0 -63 4 -92 0c-4 -25 17 -26 16 -45c0 -35 -10 -89 -30 -163c-27 -101 -59 -151 -96 -151c-50 0 -55 16 -55 71v231c0 17 23 35 20 59l-87 2c-3 -26 18 -43 18 -61v-231
c0 -51 -10 -71 -53 -71c-25 0 -46 28 -66 81c-20 54 -35 162 -46 241c8 5 23 14 20 37c-33 2 -67 2 -100 0c0 -30 3 -33 15 -45c10 -26 57 -265 82 -294c31 -66 81 -84 146 -62z" />
    <glyph glyph-name="n" unicode="n" horiz-adv-x="324" 
d="M151 -415c82 -5 153 89 153 171c0 76 -16 143 -47 202s-47 123 -47 192c0 3 -4 7 -6 8c-13 1 -45 -42 -45 -59c0 -47 15 -99 46 -158s46 -120 46 -185c0 -61 -50 -116 -127 -116c-13 0 -25 1 -36 4v296c0 17 23 35 20 59l-86 2c-3 -25 17 -45 17 -61v-329
c3 -8 -27 -16 -17 -24c33 -10 85 0 129 -2z" />
    <glyph glyph-name="o" unicode="o" horiz-adv-x="324" 
d="M166 -415c184 1 183 410 0 412c-194 0 -193 -413 0 -412zM166 -62c120 0 119 -298 0 -298c-65 0 -92 79 -92 149c0 71 27 149 92 149z" />
    <glyph glyph-name="p" unicode="p" horiz-adv-x="314" 
d="M16 241c-8 -10 17 -35 13 -49v-566l-21 -27c19 -23 93 -12 137 -14c72 -3 156 65 151 138c-8 127 -59 169 -158 244c-37 29 -56 53 -56 72v160c3 9 -58 45 -66 42zM98 -79c59 0 155 -126 155 -195c0 -65 -106 -103 -174 -82v251c0 17 6 26 19 26z" />
    <glyph glyph-name="q" unicode="q" horiz-adv-x="304" 
d="M20 -277c-3 -75 57 -139 129 -138l117 3c35 5 9 26 -1 38v566c-5 16 25 41 12 49c-10 2 -64 -31 -61 -42v-196c0 -11 -16 -29 -50 -50c-91 -58 -141 -111 -146 -230zM63 -274c0 70 82 177 139 181c9 0 14 -4 14 -12v-251c-66 -22 -153 19 -153 82z" />
    <glyph glyph-name="r" unicode="r" horiz-adv-x="267" 
d="M33 -389c3 -8 -27 -16 -17 -24c59 -5 176 -7 233 8c6 18 3 55 2 78c-36 -33 -105 -38 -169 -29v296c0 17 23 35 20 59l-86 2c-3 -25 17 -45 17 -61v-329z" />
    <glyph glyph-name="s" unicode="s" horiz-adv-x="334" 
d="M226 -344c-43 -32 -125 -12 -135 31c14 37 38 28 120 61c61 24 106 51 110 122c3 61 -90 142 -155 129c-72 3 -148 -60 -141 -133c4 -45 39 -93 90 -87c37 -7 50 47 31 77c-16 -34 -67 -17 -67 20c0 33 51 65 85 64c40 -2 121 -40 102 -90c-27 -76 -228 -56 -228 -165
c0 -64 69 -100 136 -100c40 0 113 26 115 59c1 17 -18 81 -31 49c-5 -14 -16 -25 -32 -37z" />
    <glyph glyph-name="t" unicode="t" horiz-adv-x="200" 
d="M163 -60c9 15 -18 60 -30 61c-34 0 -120 -84 -109 -131v-379s45 -90 55 -49v133c0 7 3 10 9 10c45 1 66 -1 95 10c2 26 4 52 1 78c-28 -23 -48 -32 -94 -33c-7 0 -11 2 -11 6v224c-2 31 51 80 84 70z" />
    <glyph glyph-name="u" unicode="u" horiz-adv-x="314" 
d="M277 -26c-3 6 24 21 11 24c-34 7 -79 -3 -123 -1c-82 3 -154 -48 -153 -127c-7 -34 49 -107 49 -151c0 -23 -7 -46 -22 -71c13 -17 40 -77 55 -43c15 36 18 70 18 98c0 45 -47 135 -47 167c0 67 88 85 161 70v-290c0 -19 -21 -36 -18 -61l84 -2c2 26 -15 44 -15 63v324z
" />
    <glyph glyph-name="v" unicode="v" horiz-adv-x="343" 
d="M251 -366c0 -16 -21 -23 -17 -47h92c2 22 -5 36 -14 47c-9 80 -20 148 -31 204c-23 107 -58 161 -106 161c-41 0 -84 -26 -95 -88l-39 -214c-7 -25 -6 -25 -23 -45l55 -47c31 41 22 149 35 215c16 84 33 126 59 126c32 0 56 -52 71 -156c5 -35 13 -87 13 -156z" />
    <glyph glyph-name="w" unicode="w" horiz-adv-x="552" 
d="M460 -362c0 -18 -26 -28 -15 -51h92c2 23 -5 37 -14 49c-37 132 -50 429 -215 351l-36 -33c-19 25 -57 45 -100 45c-41 0 -84 -26 -95 -88l-39 -214c-7 -25 -6 -25 -23 -45l55 -47c27 47 30 169 41 213c20 82 38 124 63 124c36 0 74 -31 74 -64v-230
c0 -8 -18 -40 -15 -61h84c3 26 -20 43 -20 61v230c-2 30 33 64 63 64c24 0 45 -30 63 -90c25 -81 37 -152 37 -214z" />
    <glyph glyph-name="x" unicode="x" horiz-adv-x="337" 
d="M219 -370c10 -19 -25 -23 -14 -43l84 2c1 23 -11 28 -19 41l-92 159l98 165c3 6 31 25 27 45l-86 -2c-2 -12 7 -19 10 -23c-18 -53 -51 -91 -75 -138c-25 46 -56 85 -76 136c2 4 11 15 9 25l-84 2c-4 -17 24 -36 25 -43l99 -165c-30 -48 -48 -108 -106 -127
c-3 -7 48 -61 55 -57c32 30 54 108 76 139z" />
    <glyph glyph-name="y" unicode="y" horiz-adv-x="324" 
d="M240 -370c6 -21 -22 -25 -13 -43l84 2c3 17 -16 33 -18 41l-94 324c-18 96 -35 159 -95 205c-34 27 -53 47 -56 58l-55 -43c-4 -22 93 -64 90 -67c45 -28 66 -108 44 -172l-77 -226c-6 -16 -24 -39 -39 -43c-4 -8 49 -62 55 -59l106 304z" />
    <glyph glyph-name="z" unicode="z" horiz-adv-x="304" 
d="M165 -360c-50 0 -86 8 -108 35c-2 -27 -3 -57 4 -78c53 -17 142 -7 210 -10c13 0 19 5 19 14c0 10 -8 28 -23 55l-149 263l-6 16c0 11 21 11 33 11c66 -1 68 -7 110 -35c0 20 5 65 -2 75c-57 19 -155 8 -231 11c-17 -4 -5 -16 7 -36l185 -307c-1 -19 -26 -14 -49 -14z
" />
    <glyph glyph-name="braceleft" unicode="{" horiz-adv-x="393" 
d="M256 -660c38 0 128 37 125 74c0 11 -5 17 -15 17c-23 -35 -54 -67 -111 -67c-54 0 -85 34 -85 89c0 49 33 189 29 206c-1 81 -35 109 -102 131c63 17 94 54 94 110c0 25 -37 165 -37 218c0 75 91 133 158 87l51 -38c9 0 13 4 13 12c0 26 -97 66 -124 66
c-77 0 -152 -62 -152 -139c0 -52 37 -191 32 -212c1 -60 -44 -91 -104 -91c-8 0 -12 -2 -12 -6s4 -8 13 -8c60 0 110 -36 110 -96c0 -51 -36 -185 -32 -206c-2 -77 71 -147 149 -147z" />
    <glyph glyph-name="bar" unicode="|" horiz-adv-x="500" 
d="M275 182h-50v-833h50v833z" />
    <glyph glyph-name="braceright" unicode="}" horiz-adv-x="393" 
d="M261 -309c-1 60 45 91 104 91c8 0 12 2 12 6c0 5 -4 7 -13 7c-66 0 -110 30 -110 97c0 51 36 184 32 205c2 78 -70 148 -149 148c-38 0 -127 -39 -125 -74c0 -12 5 -18 15 -18c23 34 53 68 111 68c52 0 85 -36 85 -89c0 -50 -33 -189 -29 -207c2 -81 34 -110 102 -130
c-63 -17 -94 -54 -94 -110c0 -57 42 -198 37 -218c1 -56 -49 -105 -106 -103c-33 -8 -86 50 -103 54c-9 0 -13 -4 -13 -12c-3 -26 96 -66 124 -66c77 0 152 61 152 138c0 53 -36 192 -32 213z" />
    <glyph glyph-name="asciitilde" unicode="~" horiz-adv-x="500" 
d="M343 -309c47 0 57 -39 94 -48c11 0 16 4 16 11c0 47 -64 103 -118 100c-80 -4 -150 -79 -213 -32c-20 8 -49 46 -66 18c-1 -42 90 -96 138 -92c21 -6 108 43 149 43z" />
    </font>
</defs>
</svg>
